fgt ettv the good doctor Lethal weapon Sicario ant man and the wasp luciana souza this is us playboy evo 2160p venom The big bang theory 1080p 2018 great british bake off s09e07 inferno office 2019 a star is born LESBIAN ANAL SEX SLAVES game of thrones incredibles 2 Ethd flash better call saul s04e10 the man in the High Castle 9-1-1 S02E03 VOICE jurassic world ita lucifer ncis s16e03 ethd ddr star trek discovery american horror story etmovies High Castle s03e03 big bang theory español the resident HINDI wwe better call saul mayans the flash s05e01 doctor who 0 czinner Doctor who s11e01 2018 ITA etrg arrow español vikings dtone billions nfl bbc shameless 1080p YIFY ncis shameless s09e05 the gifted High Castle s03e04 Big Bang Theory the flash Mission Impossible Fallout The Walking dead Ant-Man and the Wasp star trek discovery español Lethal Weapon S03E03 HDChina The Gifted s02e03 DTOne 
Warning! Use a VPN When Downloading Torrents!
Your IP Address is 136.243.35.158. Location is Germany
Your Internet Provider is tracking your torrent activity! Hide your IP ADDRESS with a VPN!
We strongly recommend using NordVPN to anonymize your torrenting. 30 Day Money Back Guarantee!
Try it Now!
ETTV Recommended TV Shows
American.Horror.Story.S08E05.HDTV.x264-LucidTV[ettv] torrent
SEAL.Team.S02E02.WEB.x264-TBS[ettv] torrent
Greys.Anatomy.S15E04.HDTV.x264-KILLERS[ettv] torrent
Mr.Mercedes.S02E08.WEBRip.x264-ETRG[ettv] torrent

ETTV Recommended Xvid
Searching.2018.HC.HDRip.XviD.AC3-EVO[EtMovies] torrent
Brothers.Nest.2018.DVDRip.XViD-ETRG torrent
22.Chaser.2018.HDRip.XviD.AC3-EVO torrent
Space.Babes.From.Outer.Space.2018.BRRip.XviD.AC3-EVO torrent

ETTV Recommended HD
Constantine.City.of.Demons.The.Movie.2018.1080p.BluRay.x264.DTS-HDMA.5.1-DTOne torrent
Death.Race-Beyond.Anarchy.2018.Multi.1080p.BluRay.x264.DTS-HDMA.5.1-DTOne torrent
Hangman.2017.Multi.BluRay.1080p.x264.DTS-HDMA.5.1-DTOne torrent
The.Extraordinary.Journey.of.the.Fakir.2018.Multi.BluRay.1080p.x264.DTSXLL.5.1-DTOne torrent

ETTV Recommended UHD
Hook.1991.mUHD.2160p.BluRay.x265.HDR.DDP.5.1-DTOne torrent
Uncle.Drew.2018.2160p.mUHD.BluRay.x265.HDR.DDP.5.1-DTOne torrent
Hotel.Transylvania.3.Summer.Vacation.2018.mUHD.2160p.BluRay.x265.HDR.DDP.5.1-DTOne torrent
Hotel.Artemis.2018.mUHD.2160p.BluRay.x265.HDR.DDP.5.1-DTOne torrent

ETTV Recommended Cam
The Predator 2018 NEW HDCAM.XViD.AC3 ETRG torrent
THE NUN 2018 NEW HDCAM-24HD torrent
Venom 2018 HD-TS V2 X264-1XBET torrent
A.Star.Is.Born.2018.HDCAM.XViD.AC3-ETRG torrent

ETTV Recommended Foreign
Imaikkaa Nodigal (2018) HDRip x264 - DTOne torrent
Jurassic.World.Fallen.Kingdom.(2018).[1080p].[Dual.Audio].[Org.DTS.HD.H.R].{Hindi.7.1+Eng.6Ch}.-~{DOOMSDAY}~- torrent
Constantine (2005) 1080p BluRay x264 Dual Audio [Hindi DD2.0 Org - English DD5.1] - Esubs ~ Ranvijay torrent
Rodin.2017.1080p.BluRay.x264-CiNEFiLE[EtHD] torrent

Social


Download Torrent "Better Call Saul (2015) Season 3 S03 + Extras (1080p BluRay x265 HEVC 10bit..."

IMDB Details
Description:

N/A

Genre:

N/A

Download Torrent (Magnet)
Download Torrent (File)
Seeds: 128
Leechers: 254
Completed: 1,136 
Last Checked: 29-09-2018 17:22:07


Loading...
Details
Title:Better Call Saul (2015) Season 3 S03 + Extras (1080p BluRay x265 HEVC 10bit...
Description:


Encode Screenshots (Click for full quality)




Media Information
General
Format                                   : Matroska
Format version                           : Version 4 / Version 2
File size                                : 1.90 GiB
Duration                                 : 51 min 57 s
Overall bit rate                         : 5 224 kb/s
Movie name                               : Better Call Saul - Season 3 - Disc 1
Encoded date                             : UTC 2018-09-25 16:57:13
Writing application                      : mkvmerge v26.0.0 ('In The Game') 64-bit
Writing library                          : libebml v1.3.6 + libmatroska v1.4.9

Video
ID                                       : 1
Format                                   : HEVC
Format/Info                              : High Efficiency Video Coding
Format profile                           : Main [email protected]@Main
Codec ID                                 : V_MPEGH/ISO/HEVC
Duration                                 : 51 min 57 s
Bit rate                                 : 3 952 kb/s
Width                                    : 1 920 pixels
Height                                   : 1 080 pixels
Display aspect ratio                     : 16:9
Frame rate mode                          : Constant
Frame rate                               : 23.976 (24000/1001) FPS
Color space                              : YUV
Chroma subsampling                       : 4:2:0
Bit depth                                : 10 bits
Bits/(Pixel*Frame)                       : 0.079
Stream size                              : 1.43 GiB (76%)
Writing library                          : x265 2.8+69-856f056d392e:[Windows][GCC 8.2.0][64 bit] 10bit
Encoding settings                        : cpuid=1111039 / frame-threads=3 / numa-pools=12 / wpp / no-pmode / no-pme / no-psnr / no-ssim / log-level=2 / input-csp=1 / input-res=1920x1080 / interlace=0 / total-frames=74746 / level-idc=0 / high-tier=1 / uhd-bd=0 / ref=4 / no-allow-non-conformance / no-repeat-headers / annexb / no-aud / no-hrd / info / hash=0 / no-temporal-layers / open-gop / min-keyint=23 / keyint=250 / gop-lookahead=0 / bframes=8 / b-adapt=2 / b-pyramid / bframe-bias=0 / rc-lookahead=80 / lookahead-slices=4 / scenecut=40 / radl=0 / no-intra-refresh / ctu=64 / min-cu-size=8 / no-rect / no-amp / max-tu-size=32 / tu-inter-depth=1 / tu-intra-depth=1 / limit-tu=0 / rdoq-level=2 / dynamic-rd=0.00 / no-ssim-rd / signhide / no-tskip / nr-intra=0 / nr-inter=0 / no-constrained-intra / strong-intra-smoothing / max-merge=3 / limit-refs=3 / limit-modes / me=3 / subme=5 / merange=57 / temporal-mvp / weightp / weightb / no-analyze-src-pics / deblock=-1:-1 / sao / no-sao-non-deblock / rd=4 / no-early-skip / rskip / no-fast-intra / no-tskip-fast / no-cu-lossless / no-b-intra / no-splitrd-skip / rdpenalty=0 / psy-rd=1.65 / psy-rdoq=2.00 / no-rd-refine / no-lossless / cbqpoffs=0 / crqpoffs=0 / rc=crf / crf=18.5 / qcomp=0.60 / qpstep=4 / stats-write=0 / stats-read=0 / ipratio=1.40 / pbratio=1.30 / aq-mode=3 / aq-strength=1.00 / cutree / zone-count=0 / no-strict-cbr / qg-size=32 / no-rc-grain / qpmax=69 / qpmin=0 / no-const-vbv / sar=0 / overscan=0 / videoformat=5 / range=0 / colorprim=2 / transfer=2 / colormatrix=2 / chromaloc=0 / display-window=0 / max-cll=0,0 / min-luma=0 / max-luma=1023 / log2-max-poc-lsb=8 / vui-timing-info / vui-hrd-info / slices=1 / no-opt-qp-pps / no-opt-ref-list-length-pps / no-multi-pass-opt-rps / scenecut-bias=0.00 / no-opt-cu-delta-qp / aq-motion / no-hdr / no-hdr-opt / no-dhdr10-opt / no-idr-recovery-sei / analysis-reuse-level=5 / scale-factor=0 / refine-intra=0 / refine-inter=0 / refine-mv=0 / no-limit-sao / ctu-info=0 / no-lowpass-dct / refine-mv-type=0 / copy-pic=1 / max-ausize-factor=1.0 / no-dynamic-refine / no-single-sei
Default                                  : Yes
Forced                                   : No

Audio #1
ID                                       : 2
Format                                   : AAC
Format/Info                              : Advanced Audio Codec
Format profile                           : LC
Codec ID                                 : A_AAC
Duration                                 : 51 min 57 s
Bit rate                                 : 410 kb/s
Channel(s)                               : 6 channels
Channel positions                        : Front: L C R, Side: L R, LFE
Sampling rate                            : 48.0 kHz
Frame rate                               : 46.875 FPS (1024 spf)
Compression mode                         : Lossy
Delay relative to video                  : 20 ms
Stream size                              : 152 MiB (8%)
Language                                 : English
Default                                  : No
Forced                                   : No

Audio #2
ID                                       : 3
Format                                   : AAC
Format/Info                              : Advanced Audio Codec
Format profile                           : HE-AAC / LC
Codec ID                                 : A_AAC
Duration                                 : 51 min 57 s
Bit rate                                 : 192 kb/s
Channel(s)                               : 6 channels
Channel positions                        : Front: L C R, Side: L R, LFE
Sampling rate                            : 48.0 kHz / 24.0 kHz
Frame rate                               : 23.438 FPS (1024 spf)
Compression mode                         : Lossy
Delay relative to video                  : 40 ms
Stream size                              : 71.4 MiB (4%)
Language                                 : German
Default                                  : No
Forced                                   : No

Audio #3
ID                                       : 4
Format                                   : AAC
Format/Info                              : Advanced Audio Codec
Format profile                           : HE-AAC / LC
Codec ID                                 : A_AAC
Duration                                 : 51 min 57 s
Bit rate                                 : 192 kb/s
Channel(s)                               : 6 channels
Channel positions                        : Front: L C R, Side: L R, LFE
Sampling rate                            : 48.0 kHz / 24.0 kHz
Frame rate                               : 23.438 FPS (1024 spf)
Compression mode                         : Lossy
Delay relative to video                  : 40 ms
Stream size                              : 71.4 MiB (4%)
Language                                 : Italian
Default                                  : No
Forced                                   : No

Audio #4
ID                                       : 5
Format                                   : AAC
Format/Info                              : Advanced Audio Codec
Format profile                           : HE-AAC / LC
Codec ID                                 : A_AAC
Duration                                 : 51 min 57 s
Bit rate                                 : 192 kb/s
Channel(s)                               : 6 channels
Channel positions                        : Front: L C R, Side: L R, LFE
Sampling rate                            : 48.0 kHz / 24.0 kHz
Frame rate                               : 23.438 FPS (1024 spf)
Compression mode                         : Lossy
Delay relative to video                  : 40 ms
Stream size                              : 71.4 MiB (4%)
Language                                 : Spanish
Default                                  : No
Forced                                   : No

Audio #5
ID                                       : 6
Format                                   : AAC
Format/Info                              : Advanced Audio Codec
Format profile                           : HE-AAC / LC
Codec ID                                 : A_AAC
Duration                                 : 51 min 57 s
Bit rate                                 : 80.0 kb/s
Channel(s)                               : 2 channels
Channel positions                        : Front: L R
Sampling rate                            : 48.0 kHz / 24.0 kHz
Frame rate                               : 23.438 FPS (1024 spf)
Compression mode                         : Lossy
Delay relative to video                  : 40 ms
Stream size                              : 29.7 MiB (2%)
Title                                    : Commentary with Peter Gould, Vince Gilligan, Bob Odenkirk, Jonathan Banks & Marshall Adams
Language                                 : English
Default                                  : No
Forced                                   : No

Subtitle #1
ID                                       : 7
Format                                   : PGS
Muxing mode                              : zlib
Codec ID                                 : S_HDMV/PGS
Codec ID/Info                            : Picture based subtitle format used on BDs/HD-DVDs
Duration                                 : 43 min 23 s
Bit rate                                 : 26.4 kb/s
Count of elements                        : 846
Stream size                              : 8.19 MiB (0%)
Language                                 : English
Default                                  : No
Forced                                   : No

Subtitle #2
ID                                       : 8
Format                                   : PGS
Muxing mode                              : zlib
Codec ID                                 : S_HDMV/PGS
Codec ID/Info                            : Picture based subtitle format used on BDs/HD-DVDs
Duration                                 : 48 min 47 s
Bit rate                                 : 19.9 kb/s
Count of elements                        : 862
Stream size                              : 6.95 MiB (0%)
Language                                 : Danish
Default                                  : No
Forced                                   : No

Subtitle #3
ID                                       : 9
Format                                   : PGS
Muxing mode                              : zlib
Codec ID                                 : S_HDMV/PGS
Codec ID/Info                            : Picture based subtitle format used on BDs/HD-DVDs
Duration                                 : 48 min 47 s
Bit rate                                 : 20.1 kb/s
Count of elements                        : 736
Stream size                              : 7.00 MiB (0%)
Language                                 : Finnish
Default                                  : No
Forced                                   : No

Subtitle #4
ID                                       : 10
Format                                   : PGS
Muxing mode                              : zlib
Codec ID                                 : S_HDMV/PGS
Codec ID/Info                            : Picture based subtitle format used on BDs/HD-DVDs
Duration                                 : 51 min 27 s
Bit rate                                 : 25.4 kb/s
Count of elements                        : 880
Stream size                              : 9.35 MiB (0%)
Language                                 : German
Default                                  : No
Forced                                   : No

Subtitle #5
ID                                       : 11
Format                                   : PGS
Muxing mode                              : zlib
Codec ID                                 : S_HDMV/PGS
Codec ID/Info                            : Picture based subtitle format used on BDs/HD-DVDs
Duration                                 : 50 min 31 s
Bit rate                                 : 25.1 kb/s
Count of elements                        : 896
Stream size                              : 9.08 MiB (0%)
Language                                 : Italian
Default                                  : No
Forced                                   : No

Subtitle #6
ID                                       : 12
Format                                   : PGS
Muxing mode                              : zlib
Codec ID                                 : S_HDMV/PGS
Codec ID/Info                            : Picture based subtitle format used on BDs/HD-DVDs
Duration                                 : 48 min 47 s
Bit rate                                 : 20.8 kb/s
Count of elements                        : 740
Stream size                              : 7.25 MiB (0%)
Language                                 : Norwegian Bokmal
Default                                  : No
Forced                                   : No

Subtitle #7
ID                                       : 13
Format                                   : PGS
Muxing mode                              : zlib
Codec ID                                 : S_HDMV/PGS
Codec ID/Info                            : Picture based subtitle format used on BDs/HD-DVDs
Duration                                 : 48 min 36 s
Bit rate                                 : 22.5 kb/s
Count of elements                        : 872
Stream size                              : 7.83 MiB (0%)
Language                                 : Polish
Default                                  : No
Forced                                   : No

Subtitle #8
ID                                       : 14
Format                                   : PGS
Muxing mode                              : zlib
Codec ID                                 : S_HDMV/PGS
Codec ID/Info                            : Picture based subtitle format used on BDs/HD-DVDs
Duration                                 : 48 min 47 s
Bit rate                                 : 23.6 kb/s
Count of elements                        : 864
Stream size                              : 8.25 MiB (0%)
Language                                 : Spanish
Default                                  : No
Forced                                   : No

Subtitle #9
ID                                       : 15
Format                                   : PGS
Muxing mode                              : zlib
Codec ID                                 : S_HDMV/PGS
Codec ID/Info                            : Picture based subtitle format used on BDs/HD-DVDs
Duration                                 : 50 min 31 s
Bit rate                                 : 22.3 kb/s
Count of elements                        : 864
Stream size                              : 8.06 MiB (0%)
Language                                 : Swedish
Default                                  : No
Forced                                   : No

Subtitle #10
ID                                       : 16
Format                                   : PGS
Muxing mode                              : zlib
Codec ID                                 : S_HDMV/PGS
Codec ID/Info                            : Picture based subtitle format used on BDs/HD-DVDs
Duration                                 : 50 min 31 s
Bit rate                                 : 23.2 kb/s
Count of elements                        : 870
Stream size                              : 8.37 MiB (0%)
Language                                 : Turkish
Default                                  : No
Forced                                   : No

Subtitle #11
ID                                       : 17
Format                                   : PGS
Muxing mode                              : zlib
Codec ID                                 : S_HDMV/PGS
Codec ID/Info                            : Picture based subtitle format used on BDs/HD-DVDs
Duration                                 : 51 min 35 s
Bit rate                                 : 69.0 kb/s
Count of elements                        : 2011
Stream size                              : 25.4 MiB (1%)
Title                                    : Commentary with Peter Gould, Vince Gilligan, Bob Odenkirk, Jonathan Banks & Marshall Adams
Language                                 : English
Default                                  : No
Forced                                   : No

Subtitle #12
ID                                       : 18
Format                                   : PGS
Muxing mode                              : zlib
Codec ID                                 : S_HDMV/PGS
Codec ID/Info                            : Picture based subtitle format used on BDs/HD-DVDs
Duration                                 : 51 min 35 s
Bit rate                                 : 68.3 kb/s
Count of elements                        : 2089
Stream size                              : 25.2 MiB (1%)
Title                                    : Commentary with Peter Gould, Vince Gilligan, Bob Odenkirk, Jonathan Banks & Marshall Adams
Language                                 : German
Default                                  : No
Forced                                   : No

Subtitle #13
ID                                       : 19
Format                                   : PGS
Muxing mode                              : zlib
Codec ID                                 : S_HDMV/PGS
Codec ID/Info                            : Picture based subtitle format used on BDs/HD-DVDs
Duration                                 : 51 min 35 s
Bit rate                                 : 60.1 kb/s
Count of elements                        : 1973
Stream size                              : 22.2 MiB (1%)
Title                                    : Commentary with Peter Gould, Vince Gilligan, Bob Odenkirk, Jonathan Banks & Marshall Adams
Language                                 : Italian
Default                                  : No
Forced                                   : No

Subtitle #14
ID                                       : 20
Format                                   : PGS
Muxing mode                              : zlib
Codec ID                                 : S_HDMV/PGS
Codec ID/Info                            : Picture based subtitle format used on BDs/HD-DVDs
Duration                                 : 51 min 35 s
Bit rate                                 : 61.0 kb/s
Count of elements                        : 1973
Stream size                              : 22.5 MiB (1%)
Title                                    : Commentary with Peter Gould, Vince Gilligan, Bob Odenkirk, Jonathan Banks & Marshall Adams
Language                                 : Spanish
Default                                  : No
Forced                                   : No

Menu
00:00:00.000                             : en:Chapter 01
00:05:58.191                             : en:Chapter 02
00:17:11.780                             : en:Chapter 03
00:26:49.774                             : en:Chapter 04
00:32:37.413                             : en:Chapter 05
00:39:32.161                             : en:Chapter 06
00:51:18.075                             : en:Chapter 07

Source Information
Release : Untouched Bluray



Note from QxR:
Whilst we are happy for our releases to be re-posted on a platform we aren't on, please do so in an 'as-is' format. We ask that you do not create a new torrent, include all descriptions you see above including the QxR logo, tags, notes and screenshots. If you'd like to become a permanent poster on a website we don't post to, feel free to get in contact with a QxR member.
Category:TV > HEVC/x265
Lang:English  English
Total Size:19.16 GB
Info Hash:7ab4a8939f8b6c3e974b240fb4bc69550e017e6f
Added By:QxR
Date Added:29-09-2018 17:22:02

Files

File List: 
 File Size
Better Call Saul (2015) - S03E01 - Mabel (1080p BluRay x265 RZeroX).mkv1.90 GB
Better Call Saul (2015) - S03E02 - Witness (1080p BluRay x265 RZeroX).mkv1.94 GB
Better Call Saul (2015) - S03E03 - Sunk Costs (1080p BluRay x265 RZeroX).mkv1.85 GB
Better Call Saul (2015) - S03E04 - Sabrosito (1080p BluRay x265 RZeroX).mkv1.55 GB
Better Call Saul (2015) - S03E05 - Chicanery (1080p BluRay x265 RZeroX).mkv1.54 GB
Better Call Saul (2015) - S03E06 - Off Brand (1080p BluRay x265 RZeroX).mkv1.74 GB
Better Call Saul (2015) - S03E07 - Expenses (1080p BluRay x265 RZeroX).mkv2.01 GB
Better Call Saul (2015) - S03E08 - Slip (1080p BluRay x265 RZeroX).mkv1.75 GB
Better Call Saul (2015) - S03E09 - Fall (1080p BluRay x265 RZeroX).mkv1.62 GB
Better Call Saul (2015) - S03E10 - Lantern (1080p BluRay x265 RZeroX).mkv1.79 GB
Featurettes/Deleted & Extended Scenes - Hector Visits Los Pollos Hermanos.mkv100 MB
Featurettes/Deleted & Extended Scenes - Jimmy and Mike Meet for Breakfast.mkv19 MB
Featurettes/Deleted & Extended Scenes - Jimmy Calls His Clients.mkv47 MB
Featurettes/Deleted & Extended Scenes - Jimmy Goes to Sandpiper.mkv14 MB
Featurettes/Deleted & Extended Scenes - Jimmy Waits in Hospital.mkv19 MB
Featurettes/Deleted & Extended Scenes - Mike Returns to Work.mkv6 MB
Featurettes/Deleted & Extended Scenes - Saul Goodman Productions Commercia.mkv20 MB
Featurettes/Deleted & Extended Scenes - Victor Meets with Gus.mkv11 MB
Featurettes/Gag Reel.mkv96 MB
Featurettes/Gene of Omaha - Featurette.mkv183 MB
Featurettes/In Conversation - Bob Odenkirk, Jonathan Banks & Rhea Seehorn - Featurette.mkv247 MB
Featurettes/It's a Bad, Bad World - Featurette.mkv234 MB
Featurettes/Los Pollos Hermanos - Brand Management.mkv24 MB
Featurettes/Los Pollos Hermanos - Cleanliness.mkv20 MB
Featurettes/Los Pollos Hermanos - Code of Conduct.mkv26 MB
Featurettes/Los Pollos Hermanos - Communication.mkv27 MB
Featurettes/Los Pollos Hermanos - Conflict Resolution.mkv26 MB
Featurettes/Los Pollos Hermanos - Customer Service.mkv32 MB
Featurettes/Los Pollos Hermanos - Emergency Situations.mkv31 MB
Featurettes/Los Pollos Hermanos - Loss Prevention.mkv27 MB
Featurettes/Los Pollos Hermanos - Shipping and Receiving.mkv26 MB
Featurettes/Los Pollos Hermanos - Sustainability.mkv25 MB
Featurettes/Signs of Saul - Featurette.mkv128 MB
Featurettes/The Return of Gus Fring - Featurette.mkv130 MB



Loading...
Comments

There are currently no comments. Be the first one to write something !

Disclaimer: None of the files shown here are actually hosted or transmitted by this server. The links are provided solely by this site's users. The site moderation is also a service provided by the site's users. The administrator of this site (ettv.tv) cannot be held responsible for what its users post, or any other actions of its users. You may not use this site to distribute or download any material when you do not have the legal rights to do so. It is your own responsibility to adhere to these terms.